<?xml version="1.0" standalone="no"?>
<!DOCTYPE svg PUBLIC "-//W3C//DTD SVG 1.1//EN" "http://www.w3.org/Graphics/SVG/1.1/DTD/svg11.dtd">
<svg xmlns="http://www.w3.org/2000/svg">
<metadata>Copyright (C) 2024 by original authors @ fontello.com</metadata>
<defs>
<font id="hl-icon" horiz-adv-x="1000" >
<font-face font-family="hl-icon" font-weight="400" font-stretch="normal" units-per-em="1000" ascent="850" descent="-150" />
<missing-glyph horiz-adv-x="1000" />
<glyph glyph-name="pdf" unicode="&#xe82;" d="M469 84h62v185l77-77 44 44-152 153-152-153 44-44 77 77v-185z m-206-130c-21 0-39 7-54 22-14 15-21 32-21 54v641c0 21 7 38 21 53 15 15 33 22 54 22h331l219-219v-497c0-22-8-39-22-54-15-15-33-22-54-22h-474z m300 542v187h-300c-3 0-6-1-9-4-3-2-4-5-4-8v-641c0-4 1-7 4-9 3-3 6-4 9-4h474c3 0 6 1 9 4 3 2 4 5 4 9v466h-187z" horiz-adv-x="1000" />

<glyph glyph-name="ar-down-r" unicode="&#xe800;" d="M500 230c-5 0-10 1-14 3-4 1-8 4-12 8l-172 171c-7 7-10 16-10 27 0 10 3 19 10 26 7 7 16 10 26 10 11 0 19-3 26-10l146-146 146 146c7 7 15 10 26 10 11 0 19-3 26-10 7-7 10-16 10-26 0-11-3-20-10-27l-172-171c-4-4-8-7-12-8-4-2-9-3-14-3z" horiz-adv-x="1000" />

<glyph glyph-name="star" unicode="&#xe801;" d="M500 130l-173-104c-8-5-15-7-24-6-8 1-15 3-22 8-6 5-11 11-14 18-4 8-4 16-2 25l45 197-153 132c-7 6-11 13-13 21-1 8-1 16 2 24 3 7 7 14 12 19 6 4 14 8 23 9l202 18 79 185c3 8 8 15 16 19 7 4 14 6 22 6 8 0 15-2 22-6 8-4 13-11 17-19l78-185 202-18c10-1 17-5 23-9 5-5 9-12 12-19 3-8 4-16 2-24-2-8-6-15-13-21l-153-132 45-197c3-9 2-17-2-25-3-7-8-13-14-18-6-5-14-7-22-8-8-1-16 1-24 6l-173 104z" horiz-adv-x="1000" />

<glyph glyph-name="arrow" unicode="&#xe802;" d="M585 669l318-318c19-20 19-52 0-71l-318-318c-20-20-52-20-71 0-20 19-20 51 0 70l233 233-664 0 0 100 664 0-233 233c-20 20-20 51 0 71 19 19 51 19 71 0z" horiz-adv-x="1000" />

<glyph glyph-name="drag" unicode="&#xe803;" d="M375 33c-18 0-34 6-47 20-14 13-20 29-20 47 0 19 6 34 20 48 13 13 29 19 47 19 19 0 34-6 48-19 13-14 19-29 19-48 0-18-6-34-19-47-14-14-29-20-48-20z m250 0c-18 0-34 6-47 20-14 13-20 29-20 47 0 19 6 34 20 48 13 13 29 19 47 19 19 0 34-6 48-19 13-14 19-29 19-48 0-18-6-34-19-47-14-14-29-20-48-20z m-250 250c-18 0-34 6-47 20-14 13-20 29-20 47 0 19 6 34 20 48 13 13 29 19 47 19 19 0 34-6 48-19 13-14 19-29 19-48 0-18-6-34-19-47-14-14-29-20-48-20z m250 0c-18 0-34 6-47 20-14 13-20 29-20 47 0 19 6 34 20 48 13 13 29 19 47 19 19 0 34-6 48-19 13-14 19-29 19-48 0-18-6-34-19-47-14-14-29-20-48-20z m-250 250c-18 0-34 6-47 20-14 13-20 29-20 47 0 19 6 34 20 48 13 13 29 19 47 19 19 0 34-6 48-19 13-14 19-29 19-48 0-18-6-34-19-47-14-14-29-20-48-20z m250 0c-18 0-34 6-47 20-14 13-20 29-20 47 0 19 6 34 20 48 13 13 29 19 47 19 19 0 34-6 48-19 13-14 19-29 19-48 0-18-6-34-19-47-14-14-29-20-48-20z" horiz-adv-x="1000" />

<glyph glyph-name="ar-down" unicode="&#xe804;" d="M499 310l206 207 45-45-251-251-251 251 45 45 206-207z" horiz-adv-x="1000" />

<glyph glyph-name="choice" unicode="&#xe805;" d="M40-150a40 40 0 0 0-40 40v921a40 40 0 0 0 40 39h932a40 40 0 0 0 40-39v-921a40 40 0 0 0-40-40z m40 79h853v841h-853z m298 224l-4 3-107 115a39 39 0 0 0-14 22 40 40 0 0 0 6 30 38 38 0 0 0 32 18 40 40 0 0 0 23-7l3-2 80-88 295 296a39 39 0 0 0 28 11 39 39 0 0 0 28-12 40 40 0 0 0 0-56l-323-323a41 41 0 0 0-28-11 43 43 0 0 0-19 4z" horiz-adv-x="1012" />

<glyph glyph-name="choice-all" unicode="&#xe806;" d="M39-150a39 39 0 0 0-39 39v734a39 39 0 0 0 39 40h146v148a40 40 0 0 0 39 39h744a40 40 0 0 0 29-13 38 38 0 0 0 10-27v-733a40 40 0 0 0-39-40h-145v-148a39 39 0 0 0-40-39z m40 78h664v656h-664z m184 734h520a39 39 0 0 0 39-39v-507h106v655h-664z m25-604l-5 2-107 115a39 39 0 0 0-13 22 40 40 0 0 0 6 30 38 38 0 0 0 32 18 40 40 0 0 0 23-7l2-2 80-88 296 296h0a39 39 0 0 0 27 11 39 39 0 0 0 28-12 40 40 0 0 0 0-55l-323-323a40 40 0 0 0-28-12 42 42 0 0 0-18 5z" horiz-adv-x="1007" />

<glyph glyph-name="input" unicode="&#xe807;" d="M44-150a44 44 0 0 0-44 44 44 44 0 0 0 44 43h1027a44 44 0 0 0 43-43 44 44 0 0 0-43-44z m267 112a44 44 0 0 0-23 8 44 44 0 0 0-19 32l0 1-11 171a43 43 0 0 0 8 25l409 632a44 44 0 0 0 37 19 43 43 0 0 0 24-7l167-109a42 42 0 0 0 19-27 42 42 0 0 0-6-33l-410-632a42 42 0 0 0-22-17l-159-61a53 53 0 0 0-12-2h-1z m36 201l5-95 88 33 379 584-94 60z" horiz-adv-x="1114" />

<glyph glyph-name="check" unicode="&#xe808;" d="M421 265l274 283c7 7 14 10 23 10 8 0 16-3 22-10 7-6 10-14 10-23 0-10-3-18-10-24l-296-308c-7-6-14-10-23-10-9 0-16 4-23 10l-139 144c-6 7-9 15-9 24 0 9 4 17 10 24 7 6 14 10 23 10 9 0 17-4 23-10l115-120z" horiz-adv-x="1000" />

<glyph glyph-name="audio" unicode="&#xe809;" d="M981 350a445 445 0 0 1-263 408 57 57 0 0 0-27 26 42 42 0 0 0-2 35 46 46 0 0 0 27 28 51 51 0 0 0 40-2 543 543 0 0 0 234-199 526 526 0 0 0 88-296 526 526 0 0 0-88-296 543 543 0 0 0-234-199 51 51 0 0 0-40-1 46 46 0 0 0-27 27 42 42 0 0 0 2 35 57 57 0 0 0 27 27 445 445 0 0 1 263 407z m-741-163h-182a57 57 0 0 0-58 58v207a57 57 0 0 0 58 58h182l193 193a49 49 0 0 0 83-35v-639a49 49 0 0 0-83-35z m567 161a274 274 0 0 0-93-205 27 27 0 0 0-28-2 25 25 0 0 0-16 25v368a25 25 0 0 0 16 25 27 27 0 0 0 28-2 283 283 0 0 0 93-209z" horiz-adv-x="1078" />

<glyph glyph-name="text" unicode="&#xe80a;" d="M336 25a50 50 0 0 0-36 14 45 45 0 0 0-15 34v531h-184a50 50 0 0 0-36 14 47 47 0 0 0 0 68 50 50 0 0 0 35 14h470a50 50 0 0 0 36-14 45 45 0 0 0 15-34 45 45 0 0 0-15-34 49 49 0 0 0-36-14h-185v-531a45 45 0 0 0-14-34 50 50 0 0 0-35-14z m423 0a50 50 0 0 0-36 14 45 45 0 0 0-14 34v309h-91a50 50 0 0 0-36 14 47 47 0 0 0 0 67 50 50 0 0 0 36 14h282a50 50 0 0 0 35-14 45 45 0 0 0 15-33 45 45 0 0 0-15-34 49 49 0 0 0-35-14h-91v-309a45 45 0 0 0-15-34 50 50 0 0 0-35-14z" horiz-adv-x="1000" />

<glyph glyph-name="video" unicode="&#xe80b;" d="M40-150a40 40 0 0 0-40 39v922a40 40 0 0 0 40 39h932a40 40 0 0 0 40-39v-922a40 40 0 0 0-40-39z m40 79h853v841h-853z m279 650l360-208-360-208z" horiz-adv-x="1012" />

<glyph glyph-name="image" unicode="&#xe80c;" d="M40-150a40 40 0 0 0-40 39v922a40 40 0 0 0 40 39h932a40 40 0 0 0 40-39v-922a40 40 0 0 0-40-39z m40 79h853v841h-853z m185 146a24 24 0 0 0-22 14 23 23 0 0 0 3 27l88 118a24 24 0 0 0 20 10 25 25 0 0 0 21-10l92-118 138 180a25 25 0 0 0 20 10 25 25 0 0 0 21-10l134-180a23 23 0 0 0 2-27 24 24 0 0 0-22-14z m-2 415a68 68 0 0 0-20 50 68 68 0 0 0 20 50 68 68 0 0 0 50 21 68 68 0 0 0 50-21 68 68 0 0 0 21-50 68 68 0 0 0-21-50 68 68 0 0 0-50-20 68 68 0 0 0-50 20z" horiz-adv-x="1012" />

<glyph glyph-name="ox" unicode="&#xe80d;" d="M972-124v-26h-932a40 40 0 0 0-40 39h0v922h0a40 40 0 0 0 40 39h932a40 40 0 0 0 40-39v-922a40 40 0 0 0-40-39z m-40 53v842h-853v-842z m-595 283v-27a161 161 0 0 0-155 165h0a161 161 0 0 0 155 165v0a161 161 0 0 0 155-165 161 161 0 0 0-155-165z m0 60v0a75 75 0 0 1 70 78h0a75 75 0 0 1-70 78v0a75 75 0 0 1-70-78 75 75 0 0 1 70-78z m451-53v-27a42 42 0 0 0-30 13l19 19-19-19-1 0 0 1-77 83-74-80 0 0 0 0a42 42 0 0 0-30-13v0a42 42 0 0 0-30 13l19 19-19-19-1 0 0 0a45 45 0 0 0 0 61h0l76 82-70 76h0a45 45 0 0 0 0 60l20-18-20 18a42 42 0 0 0 61 0l-19-18 19 18 68-73 73 79 20-18h0l-20 18h0a42 42 0 0 0 62 0l-20-18 20 18a45 45 0 0 0 0-60l-77-82 80-86-19-18 19 18a45 45 0 0 0 0-60l0-1-1 0-18 19h0l18-19a42 42 0 0 0-30-13z m-108 109z m22 24h0z m-44 0h0z m22 24z m135 58l-20 19h0z m-245 11l0 1h0z m248-179z m-206 222z m203 7z m197 316z" horiz-adv-x="1011" />

<glyph glyph-name="delete-tag" unicode="&#xe80e;" d="M100 350a400 400 0 0 0 400 400 400 400 0 0 0 400-400 400 400 0 0 0-400-400 400 400 0 0 0-400 400z m50 0a350 350 0 0 1 350-350 350 350 0 0 1 350 350 350 350 0 0 1-350 350 350 350 0 0 1-350-350z m465-185l-115 114-115-114a51 51 0 0 0-35-15 50 50 0 0 0-35 15 50 50 0 0 0 0 70l114 115-114 115a50 50 0 0 0 0 70 50 50 0 0 0 70 0l115-114 115 114a50 50 0 0 0 70 0 50 50 0 0 0 0-70l-114-115 114-115a50 50 0 0 0 0-70 50 50 0 0 0-35-15 51 51 0 0 0-35 15z" horiz-adv-x="1000" />

<glyph glyph-name="gallery" unicode="&#xe826;" d="M409 106h319a65 65 0 0 1 48 16 65 65 0 0 1 16 48v14l-113 106a47 47 0 0 1-15 10 47 47 0 0 1-17 3 46 46 0 0 1-17-3 51 51 0 0 1-15-10l-96-85-38 35a44 44 0 0 1-14 9 41 41 0 0 1-15 3 35 35 0 0 1-14-3 56 56 0 0 1-14-9l-79-69a66 66 0 0 1 16-49 65 65 0 0 1 48-16z m94 179a49 49 0 0 1 36 15 50 50 0 0 1 15 37 49 49 0 0 1-7 25 53 53 0 0 1-19 19 49 49 0 0 1-25 7 49 49 0 0 1-37-15 50 50 0 0 1-15-36 50 50 0 0 1 15-37 49 49 0 0 1 37-15z m-277-53a81 81 0 0 1 31-54 82 82 0 0 1 62-10l34 6v48l-39-6a36 36 0 0 0-28 4 36 36 0 0 0-13 24l-39 221a36 36 0 0 0 4 28 36 36 0 0 0 24 13l320 56a37 37 0 0 0 28-4 35 35 0 0 0 13-25l12-68h49l-14 81a80 80 0 0 1-31 55 81 81 0 0 1-62 9l-326-57a82 82 0 0 1-55-31 79 79 0 0 1-10-61z m177-144h333a82 82 0 0 1 60 20 80 80 0 0 1 20 59v232a80 80 0 0 1-20 59 81 81 0 0 1-60 21h-333a82 82 0 0 1-60-20 80 80 0 0 1-20-60v-232a80 80 0 0 1 20-59 82 82 0 0 1 60-20z m3 48a36 36 0 0 0-26 9 36 36 0 0 0-9 26v224a36 36 0 0 0 9 27 35 35 0 0 0 26 9h327a36 36 0 0 0 26-9 36 36 0 0 0 9-27v-224a35 35 0 0 0-9-26 36 36 0 0 0-26-9z" horiz-adv-x="1000" />

<glyph glyph-name="wave" unicode="&#xe827;" d="M274 260a26 26 0 0 1 19 8 26 26 0 0 1 8 19v126a26 26 0 0 1-8 19 26 26 0 0 1-19 8 25 25 0 0 1-18-8 27 27 0 0 1-8-19v-126a26 26 0 0 1 8-19 25 25 0 0 1 18-8z m93-102a26 26 0 0 1 19 8 26 26 0 0 1 8 19v330a26 26 0 0 1-8 19 26 26 0 0 1-19 8 25 25 0 0 1-19-8 26 26 0 0 1-7-19v-330a26 26 0 0 1 7-19 25 25 0 0 1 19-8z m93-94a26 26 0 0 1 19 7 26 26 0 0 1 8 19v519a26 26 0 0 1-8 19 26 26 0 0 1-19 8 25 25 0 0 1-19-8 26 26 0 0 1-7-19v-519a26 26 0 0 1 7-19 25 25 0 0 1 19-7z m93 131a26 26 0 0 1 19 8 26 26 0 0 1 8 19v256a26 26 0 0 1-8 19 26 26 0 0 1-19 7 25 25 0 0 1-19-7 26 26 0 0 1-7-19v-256a26 26 0 0 1 7-19 26 26 0 0 1 19-8z m93-75a26 26 0 0 1 19 8 26 26 0 0 1 8 19v406a26 26 0 0 1-8 19 26 26 0 0 1-19 7 25 25 0 0 1-19-7 26 26 0 0 1-8-19v-406a26 26 0 0 1 8-19 26 26 0 0 1 19-8z m93 123a26 26 0 0 1 19 8 26 26 0 0 1 8 19v160a26 26 0 0 1-8 19 26 26 0 0 1-19 8 25 25 0 0 1-19-8 26 26 0 0 1-7-19v-160a26 26 0 0 1 7-19 25 25 0 0 1 19-8z" horiz-adv-x="1000" />

<glyph glyph-name="arrow-up" unicode="&#xe828;" d="M625 444a31 31 0 0 0-22 9l-103 103-103-103a31 31 0 0 0-44 0 31 31 0 0 0 0 44l125 125a31 31 0 0 0 22 9 31 31 0 0 0 22-9l125-125a31 31 0 0 0 0-44 31 31 0 0 0-22-9z m-125-375a31 31 0 0 0-31 31v500a31 31 0 0 0 31 31 31 31 0 0 0 31-31v-500a31 31 0 0 0-31-31z" horiz-adv-x="1000" />

<glyph glyph-name="link" unicode="&#xe829;" d="M534 460l-50-50a125 125 0 0 0 36-9 86 86 0 0 0 27-18 108 108 0 0 0 29-48 95 95 0 0 0 0-51 106 106 0 0 0-28-48l-92-91a107 107 0 0 0-47-29 95 95 0 0 0-52 0 106 106 0 0 0-47 29 108 108 0 0 0-29 48 95 95 0 0 0 0 51 108 108 0 0 0 28 47l35 35a139 139 0 0 0-11 39 102 102 0 0 0 4 42l-74-73a170 170 0 0 1-46-76 153 153 0 0 1 0-83 172 172 0 0 1 46-76 171 171 0 0 1 76-47 154 154 0 0 1 83 0 171 171 0 0 1 76 46l96 96a171 171 0 0 1 46 76 154 154 0 0 1 0 83 171 171 0 0 1-46 76 103 103 0 0 1-26 19 132 132 0 0 1-34 12z m-54-235l50 50a124 124 0 0 0-36 9 89 89 0 0 0-27 18 109 109 0 0 0-29 48 94 94 0 0 0 0 51 107 107 0 0 0 28 47l92 92a107 107 0 0 0 48 29 95 95 0 0 0 51 0 109 109 0 0 0 47-29 109 109 0 0 0 29-48 95 95 0 0 0 0-51 107 107 0 0 0-28-47l-35-35a141 141 0 0 0 11-39 103 103 0 0 0-4-42l74 74a169 169 0 0 1 46 75 154 154 0 0 1 0 83 173 173 0 0 1-46 76 173 173 0 0 1-76 46 153 153 0 0 1-83 0 172 172 0 0 1-76-45l-96-96a171 171 0 0 1-46-76 154 154 0 0 1 0-83 170 170 0 0 1 46-76 107 107 0 0 1 26-19 128 128 0 0 1 34-12z" horiz-adv-x="1000" />

<glyph glyph-name="add" unicode="&#xe82a;" d="M500 750a400 400 0 1 1 400-400 401 401 0 0 1-400 400m0 100a500 500 0 1 0-500-500 500 500 0 0 0 500 500z m0-750a50 50 0 0 0-50 50v400a50 50 0 0 0 50 50 50 50 0 0 0 50-50v-400a50 50 0 0 0-50-50z m-251 250a50 50 0 0 0 50 50l403 0a50 50 0 0 0 50-50 50 50 0 0 0-50-50l-403 0a50 50 0 0 0-50 50z" horiz-adv-x="1000" />

<glyph glyph-name="trash" unicode="&#xe82b;" d="M381 67h252a70 70 0 0 1 50 18 71 71 0 0 1 21 50l18 400h31a23 23 0 0 1 17 7 24 24 0 0 1 7 17 23 23 0 0 1-7 18 23 23 0 0 1-17 7h-491a23 23 0 0 1-17-7 23 23 0 0 1-7-18 24 24 0 0 1 7-17 23 23 0 0 1 17-7h30l19-400a71 71 0 0 1 20-50 70 70 0 0 1 50-18z m6 49a25 25 0 0 0-19 8 30 30 0 0 0-8 20l-18 391h330l-18-391a29 29 0 0 0-8-21 25 25 0 0 0-19-7z m40 45a19 19 0 0 1 13 5 18 18 0 0 1 5 13l-8 291a17 17 0 0 1-5 13 19 19 0 0 1-14 5 19 19 0 0 1-14-5 17 17 0 0 1-5-14l9-290a18 18 0 0 1 5-13 19 19 0 0 1 14-5z m80 0a20 20 0 0 1 14 5 17 17 0 0 1 5 13v291a17 17 0 0 1-5 13 20 20 0 0 1-14 5 19 19 0 0 1-14-5 17 17 0 0 1-5-13v-291a17 17 0 0 1 5-13 19 19 0 0 1 14-5z m81 0a19 19 0 0 1 13 5 18 18 0 0 1 6 13l8 291a17 17 0 0 1-5 13 19 19 0 0 1-14 5 19 19 0 0 1-13-5 19 19 0 0 1-6-13l-8-291a17 17 0 0 1 5-13 19 19 0 0 1 14-5z m-205 404h50v58a22 22 0 0 0 7 17 26 26 0 0 0 18 6h97a26 26 0 0 0 19-6 22 22 0 0 0 6-17v-58h51v60a65 65 0 0 1-19 50 74 74 0 0 1-53 18h-104a74 74 0 0 1-53-18 65 65 0 0 1-19-50z" horiz-adv-x="1000" />

<glyph glyph-name="arrow-down" unicode="&#xe82c;" d="M375 256a31 31 0 0 0 22-9l103-103 103 103a31 31 0 0 0 44 0 31 31 0 0 0 0-44l-125-125a31 31 0 0 0-22-9 31 31 0 0 0-22 9l-125 125a31 31 0 0 0 0 44 31 31 0 0 0 22 9z m125 375a31 31 0 0 0 31-31l0-500a31 31 0 0 0-31-31 31 31 0 0 0-31 31l0 500a31 31 0 0 0 31 31z" horiz-adv-x="1000" />

<glyph glyph-name="group" unicode="&#xe82d;" d="M269 149c-13 7-22 16-29 27-7 12-11 25-11 39v181l-83 46c-7 4-12 9-15 14-3 6-5 12-5 19 0 7 2 13 5 19 3 5 8 10 15 14l318 173c6 3 12 6 18 7 6 2 12 2 18 2 6 0 12 0 18-2 6-1 12-4 18-7l359-195c7-4 12-8 15-14 3-6 5-13 5-20v-245c0-9-3-17-9-23-6-6-13-9-22-9-9 0-16 3-22 9-6 6-9 14-9 23v233l-82-44v-181c0-14-4-27-11-39-7-11-16-20-28-27l-196-106c-6-3-12-6-18-7-6-1-12-2-18-2-6 0-12 1-18 2-6 1-12 4-18 7l-195 106z m226 174c2-1 4-1 5-1 2 0 3 0 5 1l280 152-280 151c-2 2-3 2-5 2-1 0-3 0-5-2l-280-151 280-152z m0-226c2-1 3-1 5-1 2 0 3 0 5 1l197 107c3 1 4 2 5 4 1 2 1 4 1 7v148l-171-94c-6-4-12-6-18-7-6-2-13-3-19-3-6 0-13 1-19 3-6 1-12 3-18 7l-171 94v-148c0-2 0-4 1-6 1-2 3-4 5-5l197-107z" horiz-adv-x="1000" />

<glyph glyph-name="library" unicode="&#xe82e;" d="M221 58h362v171c0 11 4 20 11 27 7 7 16 11 27 11h171v362c0 4-1 7-4 9-2 3-5 4-9 4h-558c-4 0-7-1-9-4-2-2-4-5-4-9v-558c0-4 2-7 4-9 2-2 5-4 9-4z m0-62c-21 0-38 7-53 22-15 15-22 32-22 53v558c0 21 7 38 22 53 15 15 32 22 53 22h558c21 0 38-7 53-22 15-15 22-32 22-53v-358c0-10-2-20-6-29-4-9-9-17-16-24l-200-200c-7-7-15-12-24-16-9-4-19-6-29-6h-358z m248 282h-128c-8 0-16 3-22 9-6 6-9 13-9 22 0 9 3 16 9 22 6 6 14 9 22 9h128c9 0 16-3 22-9 6-6 9-13 9-22 0-9-3-16-9-22-6-6-13-9-22-9z m190 166h-318c-8 0-16 3-22 9-6 6-9 13-9 22 0 9 3 16 9 22 6 6 14 9 22 9h318c9 0 16-3 22-9 6-6 9-13 9-22 0-9-3-16-9-22-6-6-13-9-22-9z" horiz-adv-x="1000" />

<glyph glyph-name="community" unicode="&#xe82f;" d="M335 465l133 218c4 7 9 11 14 14 6 3 12 4 18 4 6 0 12-1 18-4 6-3 10-7 14-14l133-218c4-6 6-13 6-20 0-6-1-13-5-18-3-6-7-11-13-14-5-4-12-5-19-5h-268c-7 0-14 1-19 5-6 3-10 8-13 14-4 5-5 11-5 18 0 7 2 14 6 20z m394-516c-48 0-88 17-121 50-34 33-50 74-50 122 0 48 16 88 50 121 33 34 73 50 121 50 48 0 89-16 122-50 33-33 50-73 50-121 0-48-17-89-50-122-33-33-74-50-122-50z m-588 59v226c0 11 4 20 11 27 7 7 16 10 27 10h226c10 0 19-3 27-10 7-8 10-17 10-27v-226c0-11-3-20-10-27-8-7-17-11-27-11h-226c-11 0-20 4-27 11-7 7-11 16-11 27z m588 4c31 0 57 10 78 31 21 22 31 47 31 78 0 30-10 56-31 77-21 21-47 32-78 32-30 0-56-11-77-32-21-21-32-47-32-77 0-31 11-56 32-78 21-21 47-31 77-31z m-525 21h176v176h-176v-176z m206 437h180l-90 145-90-145z" horiz-adv-x="1000" />

<glyph glyph-name="human" unicode="&#xe830;" d="M500 363c-40 0-74 14-103 43-29 28-43 63-43 103 0 40 14 74 43 103 29 28 63 43 103 43 40 0 74-15 103-43 29-29 43-63 43-103 0-40-14-75-43-103-29-29-63-43-103-43z m-312-254v29c0 21 5 40 16 57 11 17 26 31 45 40 41 20 82 35 124 45 42 11 84 16 127 16 43 0 85-5 127-16 42-10 83-25 124-45 19-9 34-23 45-40 11-17 17-36 17-57v-29c0-18-7-33-19-45-12-12-27-18-45-18h-498c-18 0-33 6-45 18-12 12-18 27-18 45z m62-1h500v30c0 9-2 16-7 24-5 7-12 13-20 17-36 18-73 31-110 40-37 10-75 14-113 14-38 0-76-4-113-14-37-9-74-22-110-40-8-4-15-10-20-17-5-8-7-15-7-24v-30z m250 317c23 0 43 9 59 25 16 16 24 36 24 59 0 23-8 42-24 59-16 16-36 24-59 24-23 0-42-8-59-24-16-17-24-36-24-59 0-23 8-43 24-59 17-16 36-25 59-25z" horiz-adv-x="1000" />
</font>
</defs>
</svg>
